[MagicStar] 如果合您的耳朵的话。 / お耳に合いましたら。 EP03 [WEBDL] [1080p] [AMZN]【生】

释放双眼,带上耳机,听听看~!

HD 1080p from Prime Video.
alt text
alt text

General Unique ID                      : 242629003334532430755121953240973510449 (0xB688A57340ED216057E6FDC0381B0731) Complete name                  : Omimi.ni.Aimashitara.EP03.1080p.AMZN.WEB-DL.DDP2.0.H.264-MagicStar.mkv Format                         : Matroska Format version                 : Version 4 File size                      : 940 MiB Duration                       : 24 min 0 s Overall bit rate               : 5 474 kb/s Encoded date                   : UTC 2021-07-23 23:52:20 Writing application            : mkvmerge v50.0.0 ('Awakenings') 64-bit Writing library                : libebml v1.4.0 + libmatroska v1.6.2  Video ID                             : 1 Format                         : AVC Format/Info                    : Advanced Video Codec Format profile                 : [email protected] Format settings                : CABAC / 4 Ref Frames Format settings, CABAC         : Yes Format settings, Reference fra : 4 frames Codec ID                       : V_MPEG4/ISO/AVC Duration                       : 24 min 0 s Bit rate                       : 5 248 kb/s Width                          : 1 920 pixels Height                         : 1 080 pixels Display aspect ratio           : 16:9 Frame rate mode                : Constant Frame rate                     : 23.976 (24000/1001) FPS Color space                    : YUV Chroma subsampling             : 4:2:0 Bit depth                      : 8 bits Scan type                      : Progressive Bits/(Pixel*Frame)             : 0.106 Stream size                    : 901 MiB (96%) Default                        : Yes Forced                         : No Color range                    : Limited Color primaries                : BT.709 Transfer characteristics       : BT.709 Matrix coefficients            : BT.709  Audio ID                             : 2 Format                         : E-AC-3 Format/Info                    : Enhanced AC-3 Commercial name                : Dolby Digital Plus Codec ID                       : A_EAC3 Duration                       : 24 min 0 s Bit rate mode                  : Constant Bit rate                       : 224 kb/s Channel(s)                     : 2 channels Channel layout                 : L R Sampling rate                  : 48.0 kHz Frame rate                     : 31.250 FPS (1536 SPF) Compression mode               : Lossy Stream size                    : 38.5 MiB (4%) Language                       : Japanese Service kind                   : Complete Main Default                        : Yes Forced                         : No

磁力链

magnet:?xt=urn:btih:ed03be6a59f461d58feb44c5e5a2b3defbd13d8e

文章链接:https://www.paofans.com/archives/756
文章标题:[MagicStar] 如果合您的耳朵的话。 / お耳に合いましたら。 EP03 [WEBDL] [1080p] [AMZN]【生】
文章版权:泡饭影视(paofans.tv) 所发布的内容,部分为原创文章,转载请注明来源,网络转载文章如有侵权请联系我们!
动漫下载

[MagicStar] 我推的王子 / 推しの王子様 EP02 [WEBDL] [1080p]【生】【附日字】

2021-7-25 14:16:06

动漫下载

[MagicStar] 乖僻女的单人餐 / ひねくれ女のボッチ飯 EP05 [WEBDL] [720p]【生】

2021-7-25 14:16:23

免责声明 PAOFANS.TV 是一个专门的电影推荐平台,通过收集经典电影专题以及网友互动分享好看电影,并不提供影片资源存储,也不参与录制、上传!
0 条回复 A文章作者 M管理员
    暂无讨论,说说你的看法吧
个人中心
购物车
优惠劵
今日签到
有新私信 私信列表
搜索